Pincha aquí para unirte al Foro

InfoCulturismo.com

Portal Rifas Descargas General Nutrición Definición Suplementos Farmacología Entrenamiento Rutinas Diarios +35 años Downloads
Artículos Ejercicios Pecho Espalda Piernas Glúteos Gemelos Hombros Brazos Abdominales
Retroceder   InfoCulturismo.com > Los Foros de InfoCulturismo.com > Descargas > Libros y Métodos de Entrenamiento
Recuperar contraseña Unirse al Foro
Libros y Métodos de Entrenamiento Libros y métodos relacionados principalmente con el entrenamiento y el desarrollo de masa muscular.

Jessica Mellet – Ejercicios Aerobicos (2014) [DVDrip]

Curso de Yoga en DVD  Rutinas y Dietas de Culturismo Rutina y dieta de definicion Rutina para cuerpo Fitness Rutina completa de 12 semanas
Respuesta
 
LinkBacks Herramientas
  #1  
Antiguo 15-05-2016, 21:07
Avatar de antonio0957
Senior Member
 
Fecha de Ingreso: Feb 2014
Ubicación: España
Mensajes: 4,456
antonio0957 is on a distinguished road
Predeterminado Jessica Mellet – Ejercicios Aerobicos (2014) [DVDrip]


Descripción

Conozca a la entrenadora más conocida en Europa con su nueva sesión de aeróbicos coreográficos modernos y altamente motivadores
Curso Cardio Ultimate
Movimientos básicos pero eficaces
Fácil coreografía
Información Técnica

Comprimido: Rar
Formato: Mp4
Peso : 728.62 Mb
Idioma: Español
Autor (s): Jessica Mellet .


Format : MPEG-4
Format profile : Base Media / Version 2
Codec ID : mp42
File size : 729 MiB
Duration : 51mn 23s
Overall bit rate : 1 982 Kbps
Encoded date : UTC 2014-06-21 18:18:06
Tagged date : UTC 2014-06-21 18:29:13
Writing application : HandBrake 0.9.9 2013052900

Video
ID : 1
Format : AVC
Format/Info : Advanced Video Codec
Format profile : Main@L4.0
Format settings, CABAC : Yes
Format settings, ReFrames : 4 frames
Codec ID : avc1
Codec ID/Info : Advanced Video Coding
Duration : 51mn 23s
Bit rate mode : Variable
Bit rate : 1 818 Kbps
Width : 720 pixels
Height : 576 pixels
Display aspect ratio : 16:9
Frame rate mode : Variable
Frame rate : 25.000 fps
Minimum frame rate : 8.333 fps
Maximum frame rate : 25.000 fps
Standard : PAL
Color space : YUV
Chroma subsampling : 4:2:0
Bit depth : 8 bits
Scan type : Progressive
Bits/(Pixel*Frame) : 0.175
Stream size : 668 MiB (92%)
Writing library : x264 core 130 r2273 b3065e6
Encoding settings : cabac=1 / ref=1 / deblock=1:0:0 / analyse=0x1:0x111 / me=hex / subme=2 / psy=1 / psy_rd=1.00:0.00 / mixed_ref=0 / me_range=16 / chroma_me=1 / trellis=0 / 8x8dct=0 / cqm=0 / deadzone=21,11 / fast_pskip=1 / chroma_qp_offset=0 / threads=6 / lookahead_threads=2 / sliced_threads=0 / nr=0 / decimate=1 / interlaced=0 / bluray_compat=0 / constrained_intra=0 / bframes=3 / b_pyramid=2 / b_adapt=1 / b_bias=0 / direct=1 / weightb=1 / open_gop=0 / weightp=1 / keyint=250 / keyint_min=25 / scenecut=40 / intra_refresh=0 / rc_lookahead=10 / rc=2pass / mbtree=1 / bitrate=1818 / ratetol=1.0 / qcomp=0.60 / qpmin=0 / qpmax=69 / qpstep=4 / cplxblur=20.0 / qblur=0.5 / vbv_maxrate=20000 / vbv_bufsize=25000 / nal_hrd=none / ip_ratio=1.40 / aq=1:1.00
Encoded date : UTC 2014-06-21 18:18:06
Tagged date : UTC 2014-06-21 18:29:13
Color primaries : BT.470-6 System B, BT.470-6 System G, BT.601-6 625, BT.1358 625, BT.1700 625 PAL, BT.1700 625 SECAM
Transfer characteristics : BT.709-5, BT.1361
Matrix coefficients : BT.601-6 525, BT.1358 525, BT.1700 NTSC, SMPTE 170M

Audio
ID : 2
Format : AAC
Format/Info : Advanced Audio Codec
Format profile : LC
Codec ID : 40
Duration : 51mn 23s
Bit rate mode : Variable
Bit rate : 160 Kbps
Maximum bit rate : 283 Kbps
Channel(s) : 2 channels
Channel positions : Front: L R
Sampling rate : 48.0 KHz
Compression mode : Lossy
Stream size : 58.8 MiB (8%)
Language : English
Encoded date : UTC 2014-06-21 18:18:06
Tagged date : UTC 2014-06-21 18:29:12

Text
ID : 3
Format : Apple text
Codec ID : text
Duration : 51mn 23s
Bit rate mode : Constant
Bit rate : 0
Stream size : 115 Bytes (0%)
Encoded date : UTC 2014-06-21 18:18:06
Tagged date : UTC 2014-06-21 18:29:13


link de descarga :

[Regístrate y verás el enlace]
[Regístrate y verás el enlace]


espero que os guste este post y que os podra ayudar algun dia
Responder Con Cita

Los últimos 3 hilos de antonio0957
Hilos Foro Última respuesta Respuestas Visitas Últimos mensajes
Aprende a comer con cabeza Aprende a comer bien... Libros de Nutrición antonio0957 0 14 21-10-2017 23:32
Vitaminas y minerales Guía práctica: Suplementos... Libros de Nutrición antonio0957 0 17 21-10-2017 23:21
entrenamiento quema grasas de 16 semanas pdf... Libros y Métodos de Entrenamiento chamelfo 1 22 21-10-2017 22:53

Curso de Yoga  Curso de Culturismo en DVD El Incinerador de Grasa Tu Cuerpo Ideal Impacto Muscular
Respuesta

Etiquetas
2014, aeróbicos, dvdrip, ejercicios, jessica, mellet

Herramientas

Normas de Publicación
No puedes crear nuevos temas
No puedes responder temas
No puedes subir archivos adjuntos
No puedes editar tus mensajes

Los Códigos BB están On
Los Emoticonos están On
Código [IMG] está On
Código HTML está Off
Trackbacks are On
Pingbacks are On
Refbacks are On


» Etiquetas Populares
2016 2017 alimentos alpha american antonio arnold ayuda bajar beast bienvenido blog buenas bull busco calorías camisetas champion ciclo cocina consejos consulta culturismo curso daniel datos definición descarga descargar diario dias dieta dietas duda dudas día ejercicios entrenamiento entrenar entreno español esto exclusion fernando fitness foro fotos franco fuerza futuro gimnasio glúcometro god grasa guia guillermo hipertrofia hola infracción inicial insulina interes interesantes iranian jorge josé libro libros luis mariano maría mega mensaje mensajes monster mujer muscle muscular más músculo necesito novato nueva nuevo nutrición opinion orzola pablo pdf peso post preparación presentacion presento primer protocolo publiques recetas recomendacion reported rutina rutinas salud saludo saludos semanas super suplementos swiss team todos tollo tollointra utilidad varios vegetariana vida video volúmen –
» Iniciar Sesión
Nombre de Usuario ¿Todavía no eres miembro?
¡Registrate Ahora!
Clave
» Preparaciones
Ningún Temas para Mostrar.
» Descargas
Guía de la Musculación ( 1 2)
28-04-2016 07:01
Ultimo mensaje por chamelfo
Hoy 00:29
17 Respuestas, 1,345 Visitas
» Facebook del Foro


» Temas Nuevos
Suplemento de BCAA: cuándo son útiles y cuándo una pérdida de dinero ( 1 2 3)
05-06-2015 19:38
por darkhugo
Ultimo mensaje por chamelfo
Hoy 00:59
31 Respuestas, 3,168 Visitas
Mi dietario v5.4 full+500 alimentos ( 1 2 3 4 5)
19-02-2015 10:40
por jorgeluis
Ultimo mensaje por chamelfo
Hoy 00:32
50 Respuestas, 9,149 Visitas
Guía de la Musculación ( 1 2)
28-04-2016 07:01
Ultimo mensaje por chamelfo
Hoy 00:29
17 Respuestas, 1,345 Visitas
Diccionario de nutrición y dietoterapia
Ayer 22:25
Ultimo mensaje por antonio0957
Ayer 22:25
0 Respuestas, 14 Visitas
Uno más! Me presento
Ayer 22:24
Ultimo mensaje por Chemachungo
Ayer 22:24
0 Respuestas, 14 Visitas
Fundamentos de nutrición y dietoterapia
Ayer 22:19
Ultimo mensaje por antonio0957
Ayer 22:19
0 Respuestas, 10 Visitas
» Últimos Artículos
Suplemento de BCAA: cuándo son útiles y cuándo una pérdida de dinero ( 1 2 3)
05-06-2015 19:38
por darkhugo
Ultimo mensaje por chamelfo
Hoy 00:59
31 Respuestas, 3,168 Visitas
¿Qué es el CrossFit?
17-10-2017 21:48
Ultimo mensaje por antonio0957
17-10-2017 21:48
0 Respuestas, 42 Visitas
» ¡Síguenos!
Sigue las últimas descargas y artículos en Facebook, Twitter, por RSS o por E-Mail.


Powered by vBadvanced CMPS 3.2.2

La franja horaria es GMT +2. La hora actual es: 06:40.


El webmaster y los administradores/moderadores de la web, no se responsabilizan de las opiniones o comentarios de los miembros.
El contenido de este sitio puede ser reproducido libremente enlazando el origen y citando el autor © 2011 InfoCulturismo.com
En InfoCulturismo.com NO está permitido fomentar la piratería, si ves algo con copyrigth avísanos y lo quitaremos de inmediato.
Para más información puede consultar nuestro Aviso Legal- LSSI , Política de Privacidad y Política de Protección de Datos.
Tags: Foro de Musicos  Tienda de Guitarras Foro Salud Foro Adelgazar wwwTodoesGratis.es www.InfoCulturismo.com
Powered by vBulletin™ Version 3.8.7
Copyright © 2017 vBulletin Solutions, Inc. All rights reserved.
Search Engine Optimization by vBSEO
© InfoCulturismo.com Creative Commons
Page generated in 0.21855 seconds with 31 queries

1 2 3 4 5 6 7 8 9 10 11 12 13 14 15 16 17 18 19 20 21 22 23 24 25 26 27 28 29 30 31 32 33 34 35 36 37 38 39 40 41 42 43 44 45 46 47 48 49 50 51 52 53 54 55 56 57 58 59 60 61 62 63 64 65 66 67 68 69 70